Fecha: 10/11/2009




TITULO ORIGINAL The Lion King

AÑO 1994

PAÍS Estados Unidos

DIRECTOR Rob Minkoff, Roger Allers

GUIÓN Irene Mecchi, Jonathan Roberts, Linda Woolverton

MÚSICA Hans Zimmer (Canciones: Tim Rice, Elton John)

FOTOGRAFÍA Animation

REPARTO Animation

PRODUCTORA Walt Disney Pictures

Genero : Animación. Infantil

1994: 2 Oscar: mejor banda sonora, mejor canción





SINOPSIS: Narra la aventuras en la sabana africana de Simba, un pequeño león, heredero al trono, que se exilia al ser injustamente acusado de la muerte de su padre, pero que hace buenas amistades y regresa para recuperar lo que es suyo.





Video #0

Format : MPEG-4 Visual

Codec ID/Hint : XviD

Duration : 1h 28mn

Bit rate : 1 127 Kbps

Width : 704 pixels

Height : 416 pixels

Display aspect ratio : 1.692

Frame rate : 23.976 fps

Scan type : Progressive

Stream size : 716 MiB (89%)



Audio #1

Codec ID/Hint : MP3

Duration : 1h 28mn

Bit rate mode : Constant

Bit rate : 128 Kbps

Channel(s) : 2 channels

Sampling rate : 48.0 KHz

Resolution : 16 bits

Stream size : 81.4 MiB (10%)



Formato : AVI

Tamaño : 806 MiB

Duration : 1h 28mn

Overall bit rate : 1 267 Kbps

Idioma : Español Latino

Calidad : Dvdrip (Ripeado del Dvd original)



























3 Links de 200 MB / Ultimo Link 198 MB





Freakshare













Depositfiles

















Gotupload

















Contraseña : ralf475



Archivos Intercambiables














Título Original: Lion King II: Simba's pride

Año: 1998

Género: Animación

País: Estados Unidos, Australia

Duración: 81 minutos

Dirección: Rob LaDuca / Darrell Rooney

Guión: Flip Kobler / Jonathan Cuba



Sinopsis: Kiara, la impetuosa hija primogénita de Simba y heredera de los Dominios del Clan, deseosa de vivir nuevas aventuras decide adentrarse en las Tierras Oscuras, que se sitúan fuera de los límites establecidos para ella. Allí conoce al travieso Kovu, un joven cachorro elegido para seguir las huellas de Scar. Mientras buscan su propio lugar en El Ciclo de la Vida, Kiara y Kovu se dan cuenta de que quizás ellos sean la única esperanza de alcanzar la paz entre los habitantes de las Tierras Oscuras y los del territorio de Simba.







Video

Format : MPEG-4 Visual

Codec ID : DIVX

Codec ID/Hint : DivX 4

Duration : 1h 18mn

Bit rate : 917 Kbps

Width : 512 pixels

Height : 384 pixels

Display aspect ratio : 4/3

Frame rate : 23.976 fps

Resolution : 24 bits

Scan type : Progressive

Bits/(Pixel*Frame) : 0.195

Stream size : 516 MiB (74%)



Audio

Codec ID/Hint : MP3

Duration : 1h 18mn

Bit rate mode : Variable

Bit rate : 317 Kbps

Channel(s) : 2 channels

Sampling rate : 44.1 KHz

Resolution : 16 bits

Stream size : 178 MiB (25%)

Encoding settings : ABR



Format : AVI

Tamaño : 700 MiB

Duration : 1h 18mn

Overall bit rate : 1 246 Kbps

Idioma : Español Latino

Calidad : Dvdrip

Ripper : ?
















3 Links de 200 MB / Ultimo link de 94 MB



Gotupload















Freakshare













Depositfiles













Contraseña : ralf475



Archivos Intercambiables














El rey león 3 - Hakuna Matata (2004)



TÍTULO ORIGINAL The Lion King 1½

AÑO 2004

PAÍS [Estados Unidos]

DIRECTOR Bradley Raymond

GUIÓN Tom Rogers

MÚSICA Hans Zimmer & Don Harper

PRODUCTORA Walt Disney Pictures

GÉNERO Animación. Infantil. Comedia /



SINOPSIS: La diversión reina en esta nueva película en al que Timón y su simpático amigo Pumba son los grandes héroes de la Sabana. El Rey León 3 nos traslada al pasado, antes de que comenzase la historia de Simba, e incluso mucho más atrás. En esta nueva comedia de aventuras, Timón y Pumba te descubrirán sus orígenes, cuándo se conocieron y cómo ayudaron a Simba a salvar el Seregeti. Su historia incluye algunos de los grandes momentos de El Rey León, que ahora resultarán un poco diferentes desde su punto de vista. Por ejemplo, os sorprenderá conocer la verdad sobre cómo se desarrolló el trascendental momento en el que Simba fue presentado al reino animal.







Video

Format : MPEG-4 Visual

Codec ID : XVID

Duration : 1h 16mn

Bit rate : 1 111 Kbps

Width : 544 pixels

Height : 304 pixels

Display aspect ratio : 16/9

Frame rate : 23.976 fps

Bits/(Pixel*Frame) : 0.280

Stream size : 606 MiB (87%)



Audio

Codec ID/Hint : MP3

Duration : 1h 16mn

Bit rate mode : Constant

Bit rate : 160 Kbps

Channel(s) : 2 channels

Sampling rate : 48.0 KHz

Resolution : 16 bits

Stream size : 87.3 MiB (12%)



Format : AVI

Tamaño : 699 MiB

Duration : 1h 16mn

Overall bit rate : 1 280 Kbps

Idioma : Español Latino

Calidad : Dvdrip




























3 Links de 175 MB / Ultimo Link de 168 MB





Depositfiles















Freakshare













Gotupload





















Contraseña : ralf475



Archivos Intercambiables