Fecha: 27/08/2011






SINOPSIS

Yang es un maestro con la espada que abandona su clan y huye de Asia para dejar atrás un sangriento pasado acompañado de April, un bebe que es el último miembro de un linaje enemigo. Yang termina ocultándose en un pequeño pueblo del oeste americano en el que conoce al borracho propietario de un circo y a una lanzadora de cuchillos que esconden poderosos secretos. Pronto se verá en mitad de una épica batalla en la que todo el mundo busca su cabeza: tanto los matones de la banda de los Jinetes del Infierno como su antiguo clan en busca de venganza por su traición.





TÍTULO ORIGINAL The Warrior's Way (Laundry Warrior)

AÑO 2010

DURACIÓN 100 min.

PAÍS

DIRECTOR Sngmoo Lee

GUIÓN Sngmoo Lee

MÚSICA Javier Navarrete

FOTOGRAFÍA Kim Woo-hyung

REPARTO Kate Bosworth, Danny Huston, Geoffrey Rush, Tony Cox, David Austin, Dong-gun Jang, Matt Gillanders, Kathleen LaGue, Nic Sampson, Ashley Jones, Jessica Cummings

PRODUCTORA Coproducción Corea de Sur-Nueva Zelanda;

GÉNERO Fantástico. Acción. Aventuras | Artes marciales. Samuráis

Codigo:
/El camino del guerrero (2010)[BDrip m-720p x264][Trial Ac3 (Esp-Eng-Fre)(sub][Frantstico.Accin.Aventuras].byxtuca.mkv

Format : Matroska

File size : 2.26 GiB

Duration : 1h 40mn

Overall bit rate : 3 224 Kbps

Movie name : El camino del guerrero m-720p.guerrero36

Encoded date : UTC 2011-08-01 19:27:49

Writing application : mkvmerge v2.4.2 ('Oh My God') built on Jan 18 2009 17:30:28

Writing library : libebml v0.7.7 + libmatroska v0.8.1



Video

ID : 1

Format : AVC

Format/Info : Advanced Video Codec

Format profile : High@L4.1

Format settings, CABAC : Yes

Format settings, ReFrames : 4 frames

Codec ID : V_MPEG4/ISO/AVC

Duration : 1h 40mn

Bit rate : 2 449 Kbps

Width : 1 280 pixels

Height : 528 pixels

Display aspect ratio : 2.40:1

Frame rate : 24.000 fps

Original frame rate : 23.976 fps

Color space : YUV

Chroma subsampling : 4:2:0

Bit depth : 8 bits

Scan type : Progressive

Bits/(Pixel*Frame) : 0.151

Stream size : 1.67 GiB (74%)

Title : El camino del guerrero m-720p.guerrero36

Writing library : x264 core 115 r1995 c1e60b9

Encoding settings : cabac=1 / ref=4 / deblock=1:0:0 / analyse=0x3:0x133 / me=umh / subme=9 / psy=1 / psy_rd=1.00:0.00 / mixed_ref=1 / me_range=16 / chroma_me=1 / trellis=2 / 8x8dct=1 / cqm=0 / deadzone=21,11 / fast_pskip=1 / chroma_qp_offset=-2 / threads=9 / sliced_threads=0 / nr=0 / decimate=1 / interlaced=0 / bluray_compat=0 / constrained_intra=0 / bframes=3 / b_pyramid=2 / b_adapt=2 / b_bias=0 / direct=3 / weightb=1 / open_gop=0 / weightp=2 / keyint=250 / keyint_min=23 / scenecut=40 / intra_refresh=0 / rc_lookahead=60 / rc=2pass / mbtree=1 / bitrate=2449 / ratetol=1.0 / qcomp=0.60 / qpmin=10 / qpmax=51 / qpstep=4 / cplxblur=20.0 / qblur=0.5 / ip_ratio=1.40 / aq=1:1.00



Audio #1

ID : 2

Format : AC-3

Format/Info : Audio Coding 3

Mode extension : CM (complete main)

Codec ID : A_AC3

Duration : 1h 40mn

Bit rate mode : Constant

Bit rate : 384 Kbps

Channel(s) : 6 channels

Channel positions : Front: L C R, Side: L R, LFE

Sampling rate : 48.0 KHz

Bit depth : 16 bits

Compression mode : Lossy

Stream size : 275 MiB (12%)

Language : Spanish



Audio #2

ID : 4

Format : AC-3

Format/Info : Audio Coding 3

Mode extension : CM (complete main)

Codec ID : A_AC3

Duration : 1h 40mn

Bit rate mode : Constant

Bit rate : 256 Kbps

Channel(s) : 6 channels

Channel positions : Front: L C R, Side: L R, LFE

Sampling rate : 48.0 KHz

Bit depth : 16 bits

Compression mode : Lossy

Stream size : 183 MiB (8%)

Language : English



Audio #3

ID : 6

Format : AC-3

Format/Info : Audio Coding 3

Mode extension : CM (complete main)

Codec ID : A_AC3

Duration : 1h 40mn

Bit rate mode : Constant

Bit rate : 128 Kbps

Channel(s) : 2 channels

Channel positions : Front: L R

Sampling rate : 48.0 KHz

Bit depth : 16 bits

Compression mode : Lossy

Delay relative to video : 24ms

Stream size : 91.7 MiB (4%)

Language : French



Text #1

ID : 3

Format : UTF-8

Codec ID : S_TEXT/UTF8

Codec ID/Info : UTF-8 Plain Text

Language : Spanish



Text #2

ID : 5

Format : UTF-8

Codec ID : S_TEXT/UTF8

Codec ID/Info : UTF-8 Plain Text

Language : English



Text #3

ID : 7

Format : UTF-8

Codec ID : S_TEXT/UTF8

Codec ID/Info : UTF-8 Plain Text

Language : French











CUALQUIER PROBLEMA CON LOS LINK MANDADME UN MENSAJE PRIVADO

LO ARREGLARE MAS RAPIDO SI LO DECIS EN EL FORO




ENLACES INTERCAMBIABLES







































SI NO TE VAN LOS LINK PRUEBA ASI





id: 9fd027bc3121 6d637d9ea816 03515bbb 1796500788