Fecha: 21/05/2013




Título original Psycho

Año 1960

Duración 109 min.

País Estados Unidos

Director Alfred Hitchcock

Guión Joseph Stefano (Novela: Robert Bloch)

Música Bernard Herrmann

Fotografía John L. Russell (B&W)

Reparto Anthony Perkins, Janet Leigh, John Gavin, Vera Miles, John McIntire, Martin Balsam, Simon Oakland, Patricia Hitchcock

Género Terror. Intriga | Película de culto. Asesinos en serie



Sinopsis



Una joven secretaria, tras cometer un robo en su empresa, huye de la ciudad y, después de conducir durante horas, decide descansar en un pequeño motel de carretera regentado por un tímido joven llamado Norman. Todo parece normal y tranquilo tanto en el apartado motel como en la casa de al lado en la que viven Norman y su madre, pero las cosas no son lo que parecen.



Formato: mkv

Audio Español e Inglés AC3

Subtítulos: Español e Inglés

Resolución 1280x694



Codigo:
Format : Matroska

Format version : Version 2

File size : 4.99 GiB

Duration : 1h 48mn

Overall bit rate : 6 559 Kbps

Encoded date : UTC 2012-07-10 11:33:17

Writing application : mkvmerge v4.0.0 ('The Stars were mine') built on Jun 5 2010 17:44:09

Writing library : libebml v1.0.0 + libmatroska v1.0.0



Video

ID : 1

Format : AVC

Format/Info : Advanced Video Codec

Format profile : High@L4.1

Format settings, CABAC : Yes

Format settings, ReFrames : 9 frames

Codec ID : V_MPEG4/ISO/AVC

Duration : 1h 48mn

Bit rate : 5 788 Kbps

Width : 1 280 pixels

Height : 694 pixels

Display aspect ratio : 16:9

Frame rate : 23.976 fps

Color space : YUV

Chroma subsampling : 4:2:0

Bit depth : 8 bits

Scan type : Progressive

Bits/(Pixel*Frame) : 0.272

Stream size : 4.40 GiB (88%)

Writing library : x264 core 125 r2200 999b753

Encoding settings : cabac=1 / ref=9 / deblock=1:-2:-2 / analyse=0x3:0x133 / me=umh / subme=10 / psy=1 / psy_rd=1.00:0.25 / mixed_ref=1 / me_range=24 / chroma_me=0 / trellis=2 / 8x8dct=1 / cqm=0 / deadzone=6,6 / fast_pskip=1 / chroma_qp_offset=-4 / threads=3 / lookahead_threads=1 / sliced_threads=0 / nr=0 / decimate=0 / interlaced=0 / bluray_compat=0 / constrained_intra=0 / bframes=8 / b_pyramid=2 / b_adapt=2 / b_bias=0 / direct=3 / weightb=1 / open_gop=0 / weightp=2 / keyint=250 / keyint_min=23 / scenecut=40 / intra_refresh=0 / rc_lookahead=60 / rc=crf / mbtree=1 / crf=20.5 / qcomp=0.80 / qpmin=0 / qpmax=69 / qpstep=4 / ip_ratio=1.10 / aq=1:0.50

Language : English

Default : No

Forced : No



Audio #1

ID : 2

Format : AC-3

Format/Info : Audio Coding 3

Mode extension : CM (complete main)

Codec ID : A_AC3

Duration : 1h 48mn

Bit rate mode : Constant

Bit rate : 256 Kbps

Channel(s) : 2 channels

Channel positions : Front: L R

Sampling rate : 48.0 KHz

Bit depth : 16 bits

Compression mode : Lossy

Stream size : 199 MiB (4%)

Title : AC3 2.0 Formato Original de Emisión

Language : English

Default : No

Forced : No



Audio #2

ID : 3

Format : AC-3

Format/Info : Audio Coding 3

Mode extension : CM (complete main)

Codec ID : A_AC3

Duration : 1h 48mn

Bit rate mode : Constant

Bit rate : 192 Kbps

Channel(s) : 2 channels

Channel positions : Front: L R

Sampling rate : 48.0 KHz

Bit depth : 16 bits

Compression mode : Lossy

Stream size : 149 MiB (3%)

Title : Doblaje Original 1961

Language : Spanish

Default : Yes

Forced : No



Audio #3

ID : 4

Format : AC-3

Format/Info : Audio Coding 3

Mode extension : CM (complete main)

Codec ID : A_AC3

Duration : 1h 48mn

Bit rate mode : Constant

Bit rate : 192 Kbps

Channel(s) : 2 channels

Channel positions : Front: L R

Sampling rate : 48.0 KHz

Bit depth : 16 bits

Compression mode : Lossy

Delay relative to video : 24s 100ms

Stream size : 149 MiB (3%)

Title : Redoblaje TVE 1979

Language : Spanish

Default : No

Forced : No



Text #1

ID : 5

Format : UTF-8

Codec ID : S_TEXT/UTF8

Codec ID/Info : UTF-8 Plain Text

Title : Subs DVD PAL

Language : Spanish

Default : Yes

Forced : No



Text #2

ID : 6

Format : UTF-8

Codec ID : S_TEXT/UTF8

Codec ID/Info : UTF-8 Plain Text

Title : Subs DVD NTSC

Language : Spanish

Default : No

Forced : No



Text #3

ID : 7

Format : UTF-8

Codec ID : S_TEXT/UTF8

Codec ID/Info : UTF-8 Plain Text

Title : Inglés

Language : English

Default : No

Forced : No





DDL

Codigo:


















































































































Partido con winrar

Contraseña: cineclasico

Servidor DDL



Puedes copiar este post donde quieras.



Si la encuentras a buen precio y te gusta, cómprala

id: 61afeadf0d40 69a2c3df0396 d20db1f3 911291872